Steven Dux - Trading Techniques
Steven Dux - Trading Techniques
WEBRip | English | MP4 | 2560 x 1440 | AVC ~828 Kbps | 60 fps
AAC | 540 Kbps | 48.0 KHz | 2 channels | ~9 hours | 3.44 GB
Genre: eLearning Video / Trading


Learn how Steven Dux turned $27k into $1.3 Million in just one year. Are you new to the world of trading and would like to know how to get started? Are you already somewhat experienced but would like to take your trading to the next level? Do you want to find out how I was able to make over $1 Million of profits in one short year?
In just 10 hours you will learn:

Market Basics
The stock market basics from A-Z that you'll need to get started

Psychology
The psychology of trading

Long and short side trading
The difference between long and short side trading and how to take advantage of both positions

Risk Management Strategies
The different risk management strategies to build your account steadily

Statistics Database
How to build your own statistics database and use it to take advantage of any trading method

My top Trading Strategies
And most importantly: My top 8 trading strategies for today's Penny Stock Market

General
Complete name : Steven Dux Trading Techniques Part 2.5.mp4
Format : MPEG-4
Format profile : Base Media
Codec ID : isom (isom/iso2/avc1/mp41)
File size : 2.19 GiB
Duration : 3 h 48 min
Overall bit rate mode : Variable
Overall bit rate : 1 377 kb/s
Writing application : Lavf58.17.100

Video
ID : 1
Format : AVC
Format/Info : Advanced Video Codec
Format profile : [email protected]
Format settings : 1 Ref Frames
Format settings, CABAC : No
Format settings, RefFrames : 1 frame
Codec ID : avc1
Codec ID/Info : Advanced Video Coding
Duration : 3 h 48 min
Bit rate mode : Variable
Bit rate : 828 kb/s
Maximum bit rate : 30.0 Mb/s
Width : 2 560 pixels
Height : 1 440 pixels
Display aspect ratio : 16:9
Frame rate mode : Constant
Frame rate : 60.000 FPS
Color space : YUV
Chroma subsampling : 4:2:0
Bit depth : 8 bits
Scan type : Progressive
Bits/(Pixel*Frame) : 0.004
Stream size : 1.32 GiB (60%)

Audio
ID : 2
Format : AAC
Format/Info : Advanced Audio Codec
Format profile : LC
Codec ID : mp4a-40-2
Duration : 3 h 48 min
Bit rate mode : Constant
Bit rate : 540 kb/s
Channel(s) : 2 channels
Channel positions : Front: L R
Sampling rate : 48.0 kHz
Frame rate : 46.875 FPS (1024 SPF)
Compression mode : Lossy
Stream size : 881 MiB (39%)
Default : Yes
Alternate group : 1

Steven Dux - Trading Techniques

Download link:


Links are Interchangeable - No Password - Single Extraction
Dear visitor, you went to the site as unregistered user.
We recommend that you create or enter the site your name.
 

|||||||

«    October 2018    »
MonTueWedThuFriSatSun
1234567
891011121314
15161718192021
22232425262728
293031 

UploadGIG.com